criminal minds ethd HINDI mission impossible fallout star trek discovery formula 1 Doctor Who greys anatomy Better Call Saul the last ship incredibles 2 dtone 0 big bang theory etrg The Big Bang Theory S12E03 avengers evo ita LESBIAN ANAL SEX SLAVES 1080p 2018 DTOne The Big Bang Theory ufc wwe super show down the meg 1080p YIFY 2160p twistys 18 10 Crazy Rich Asians The Man In The High Castle venom 2018 the good doctor Modern family etmovies ufc 229 doctor who S11E01 chicago fire Venom ita Game Of Thrones mr robot en español american horror story fgt OFFICE 2013 office 2019 2018 ita formula motogp Crnci (2009) big bang theory español Ant-Man and the Wasp venom ETTV the walking dead NFL SOLO ant man bbc Vikings better call saul s04e09 wwe ant man and the wasp Shameless the good place arrow español star trek discovery español Fear the walking dead ddr a star is born van helsing 
Warning! Use a VPN When Downloading Torrents!
Your IP Address is 136.243.35.158. Location is Germany
Your Internet Provider is tracking your torrent activity! Hide your IP ADDRESS with a VPN!
We strongly recommend using NordVPN to anonymize your torrenting. 30 Day Money Back Guarantee!
Try it Now!
ETTV Recommended TV Shows
The.Last.Ship.S05E05.WEBRip.x264-TBS[ettv] torrent
The.Walking.Dead.S09E01.HDTV.x264-SVA[ettv] torrent
Madam.Secretary.S05E01.HDTV.x264-SVA[ettv] torrent
Australian.Survivor.S05E23.WEBRip+1080p.HDTV.h264-CRR torrent

ETTV Recommended Xvid
Alien Surveillance.2018.DVDRip.XviD-EVO torrent
Buybust.2018.BDRip.XviD.AC3-EVO[EtMovies] torrent
The.Happy.Prince.2018.HDRip.XviD.AC3-EVO torrent
Constantine.City.of.Demons.The.Movie.2018.BDRip.XviD.AC3-EVO[EtMovies] torrent

ETTV Recommended HD
Ant-man.And.The.Wasp.2018.1080p.BluRay.x264.DTS-HD.MA.7.1-HDChina[EtHD] torrent
Fighting the Sky.2019.720p.WEB-DL.H264.AC3-EVO[EtHD] torrent
BuyBust.2018.1080p.WEB-DL.DD5.1.H264-CMRG[EtHD] torrent
The.Happy.Prince.2018.1080p.WEB-DL.H264.AC3-EVO[EtHD] torrent

ETTV Recommended UHD
Skyscraper.2018.UHD.2160p.BluRay.Remux.Hevc.Atmos.7.1-DTOne torrent
Pawo.2016.UHD.2160p.BluRay.x265.HDR.DTS-HDMA.5.1-DTOne torrent
Hansel.and.Gretel.Witch.Hunters.2013.MULTi.2160p.UHD.BluRay.x265-SESKAPiLE[EtHD] torrent
Hotel.Artemis.2018.2160p.UHD.BluRay.x265-TERMiNAL[EtHD] torrent

ETTV Recommended Cam
A Simple Favor 2018 NEW HDTS.XViD.AC3-ETRG torrent
The Predator 2018 NEW HDCAM.XViD.AC3 ETRG torrent
THE NUN 2018 NEW HDCAM-24HD torrent
Venom.2018.HDTS.XViD.AC3-ETRG torrent

ETTV Recommended Foreign
Loveyatri PreDvd Hindi 720p x264 AAC - mkvCinemas torrent
Andhadhun 2018 PreDvd Hindi 1GB x264 AAC - mkvCinemas torrent
Gayatri (2018) 720p UNCUT HDRip x264 Eng Subs [Dual Audio] [Hindi DD 2.0 - Telugu 2.0] Exclusive By -=!Dr.STAR!=- torrent
Aake (2017) 720p UNCUT HDRip x264 [Dual Audio] [Hindi DD 2.0 - Kannada DD 5.1] Exclusive By -=!Dr.STAR!=- torrent

Social


Download Torrent "Chicago Med S04E01 (1080p AMZN WEB-DL x265 HEVC 10bit AC3 5.1 Qman) [UTR]"

IMDB Details
Description:

N/A

Genre:

N/A

Download Torrent (Magnet)
Download Torrent (File)
Seeds: 88
Leechers: 18
Completed: 482 
Last Checked: 06-10-2018 15:21:33


Loading...
Details
Title:Chicago Med S04E01 (1080p AMZN WEB-DL x265 HEVC 10bit AC3 5.1 Qman) [UTR]
Description:





Media Information
General
Format                                   : Matroska
Format version                           : Version 4 / Version 2
File size                                : 720 MiB
Duration                                 : 41 min 52 s
Overall bit rate                         : 2 404 kb/s
Encoded date                             : UTC 2018-10-05 16:25:06
Writing application                      : mkvmerge v27.0.0 ('Metropolis') 64-bit
Writing library                          : libebml v1.3.6 + libmatroska v1.4.9

Video
ID                                       : 1
Format                                   : HEVC
Format/Info                              : High Efficiency Video Coding
Format profile                           : Main [email protected]@Main
Codec ID                                 : V_MPEGH/ISO/HEVC
Duration                                 : 41 min 52 s
Bit rate                                 : 1 762 kb/s
Width                                    : 1 920 pixels
Height                                   : 1 080 pixels
Display aspect ratio                     : 16:9
Frame rate mode                          : Constant
Frame rate                               : 23.976 (24000/1001) FPS
Color space                              : YUV
Chroma subsampling                       : 4:2:0
Bit depth                                : 10 bits
Bits/(Pixel*Frame)                       : 0.035
Stream size                              : 528 MiB (73%)
Writing library                          : x265 2.8+74-fd517ae68f93:[Windows][MSVC 1915][64 bit] 10bit
Encoding settings                        : cpuid=1111039 / frame-threads=4 / numa-pools=16 / wpp / no-pmode / no-pme / no-psnr / no-ssim / log-level=2 / input-csp=1 / input-res=1920x1080 / interlace=0 / total-frames=60251 / level-idc=0 / high-tier=1 / uhd-bd=0 / ref=4 / no-allow-non-conformance / no-repeat-headers / annexb / no-aud / no-hrd / info / hash=0 / no-temporal-layers / open-gop / min-keyint=23 / keyint=250 / gop-lookahead=0 / bframes=8 / b-adapt=2 / b-pyramid / bframe-bias=0 / rc-lookahead=50 / lookahead-slices=4 / scenecut=40 / radl=0 / no-intra-refresh / ctu=64 / min-cu-size=8 / no-rect / no-amp / max-tu-size=32 / tu-inter-depth=1 / tu-intra-depth=1 / limit-tu=0 / rdoq-level=2 / dynamic-rd=0.00 / no-ssim-rd / signhide / no-tskip / nr-intra=0 / nr-inter=0 / no-constrained-intra / no-strong-intra-smoothing / max-merge=3 / limit-refs=3 / limit-modes / me=3 / subme=3 / merange=57 / temporal-mvp / weightp / no-weightb / no-analyze-src-pics / deblock=1:1 / no-sao / no-sao-non-deblock / rd=4 / no-early-skip / no-rskip / no-fast-intra / no-tskip-fast / no-cu-lossless / no-b-intra / no-splitrd-skip / rdpenalty=0 / psy-rd=1.40 / psy-rdoq=1.00 / no-rd-refine / no-lossless / cbqpoffs=0 / crqpoffs=0 / rc=crf / crf=21.0 / qcomp=0.60 / qpstep=4 / stats-write=0 / stats-read=0 / ipratio=1.40 / pbratio=1.30 / aq-mode=2 / aq-strength=1.00 / cutree / zone-count=0 / no-strict-cbr / qg-size=32 / no-rc-grain / qpmax=69 / qpmin=0 / no-const-vbv / sar=0 / overscan=0 / videoformat=5 / range=0 / colorprim=2 / transfer=2 / colormatrix=2 / chromaloc=0 / display-window=0 / max-cll=0,0 / min-luma=0 / max-luma=1023 / log2-max-poc-lsb=8 / vui-timing-info / vui-hrd-info / slices=1 / no-opt-qp-pps / no-opt-ref-list-length-pps / no-multi-pass-opt-rps / scenecut-bias=0.05 / no-opt-cu-delta-qp / no-aq-motion / no-hdr / no-hdr-opt / no-dhdr10-opt / no-idr-recovery-sei / analysis-reuse-level=5 / scale-factor=0 / refine-intra=0 / refine-inter=0 / refine-mv=0 / no-limit-sao / ctu-info=0 / no-lowpass-dct / refine-mv-type=0 / copy-pic=1 / max-ausize-factor=1.0 / no-dynamic-refine / no-single-sei
Language                                 : English
Default                                  : Yes
Forced                                   : No

Audio
ID                                       : 2
Format                                   : E-AC-3
Format/Info                              : Enhanced Audio Coding 3
Format settings, Endianness              : Big
Codec ID                                 : A_EAC3
Duration                                 : 41 min 52 s
Bit rate mode                            : Constant
Bit rate                                 : 640 kb/s
Channel(s)                               : 6 channels
Channel positions                        : Front: L C R, Side: L R, LFE
Sampling rate                            : 48.0 kHz
Frame rate                               : 187.500 FPS (256 spf)
Compression mode                         : Lossy
Stream size                              : 192 MiB (27%)
Language                                 : English
Default                                  : Yes
Forced                                   : No

Subtitle
ID                                       : 3
Format                                   : UTF-8
Codec ID                                 : S_TEXT/UTF8
Codec ID/Info                            : UTF-8 Plain Text
Duration                                 : 41 min 8 s
Bit rate                                 : 70 b/s
Count of elements                        : 687
Stream size                              : 21.2 KiB (0%)
Language                                 : English
Default                                  : Yes
Forced                                   : No

Source Information
Release: Unknown Source/NO-GROUP


UTR wrote:

Note From UTR
We have no issue with individuals posting or re-uploading our torrents on a platform we aren't on. However, if this is something you'd like to do, please do so in a 'as-is' format. We ask that you do not create a new torrent, include all descriptions you see above including the UTR logo, tags, notes and screenshots. If you'd like to become a permanent poster on a website we don't post to, feel free to get in contact with a UniTeam member.

If possible please donate: BTC 1QA5fum5AyXvWzdVCkQzUNvw3Ef15fHRaR


Category:TV > HEVC/x265
Lang:English  English
Total Size:720 MB
Info Hash:48967f6bc4c775a36d1e77f3d088412ac3e9880b
Added By:UTR
Date Added:06-10-2018 15:21:26

Files

File List: 
 File Size
Chicago.Med.S04E01.1080p.AMZN.WEB-DL.x265.10bit.EAC3.6.0-Qman[UTR].mkv720 MB



Loading...
Comments

There are currently no comments. Be the first one to write something !

Disclaimer: None of the files shown here are actually hosted or transmitted by this server. The links are provided solely by this site's users. The site moderation is also a service provided by the site's users. The administrator of this site (ettv.tv) cannot be held responsible for what its users post, or any other actions of its users. You may not use this site to distribute or download any material when you do not have the legal rights to do so. It is your own responsibility to adhere to these terms.